скачать бесплатно фильм не жив не мертв через торрент

Перейти к контенту

Главное меню:

Интересное
скачать бесплатно фильм не жив не мертв через торрент, Скачать фильм Ни жив, ни мертв (2002) через торрент, Ни жив, ни мертв (2002) фильм скачать торрент в хорошем , Ни жив, ни мертв (2002) скачать фильм через торрент бесплатно, Ни жив ни мёртв 2 (2007) скачать фильм через торрент бесплатно, Скачать Сериал Мертв для меня (2019) бесплатно, Фильм Ни жив, ни мертв скачать через торрент, смотреть онлайн, .
Качество: BDRip 1080pВидео: MPEG-4 AVC, 13.8 Мбит/с, 1918x1040Аудио 1: русский, 48 kHz, AC3, 6 ch, 640 kbps avg, [Дублированный]Аудио 2: русский, 48 kHz, AC3, 6 ch, 448 kbps avg, [Профессиональный многоголосый]Аудио 3: английский, 48 kHz, AC3, 6 ch, 640 kbps avg, [Оригинал]Аудио 4: английский, 48 kHz, AC3, 2 ch, 192 kbps avg, [Комментарий]Субтитры 1: русскиеСубтитры 2: английскиеВидео: Идентификатор : 1 Формат : AVC Формат/Информация : Advanced Video Codec Профиль формата : Параметр CABAC формата : Да Параметр ReFrames формата : 4 кадра Идентификатор кодека : V_MPEG4/ISO/AVC Продолжительность : 1 ч. 38 м. Битрейт : 13,8 Мбит/сек Ширина : 1918 пикселей Высота : 1040 пикселей Соотношение сторон : 1,85:1 Режим частоты кадров : Постоянный Частота кадров : 23,976 кадра/сек Цветовое пространство : YUV Субдискретизация насыщенности : 4:2:0 Битовая глубина : 8 бит Тип развёртки : Прогрессивная Бит/(Пиксели*Кадры) : 0.288 Размер потока : 9,49 Гбайт (86%) Библиотека кодирования : x264 core 138 r2358 9e941d1 Настройки программы : cabac=1 / ref=4 / deblock=1:-2:-2 / analyse=0x3:0x113 / me=umh / subme=10 / psy=1 / psy_rd=1.00:0.15 / mixed_ref=1 / me_range=24 / chroma_me=1 / trellis=2 / 8x8dct=1 / cqm=0 / deadzone=21,11 / fast_pskip=0 / chroma_qp_offset=-3 / threads=6 / lookahead_threads=1 / sliced_threads=0 / nr=0 / decimate=1 / interlaced=0 / bluray_compat=0 / constrained_intra=0 / bframes=8 / b_pyramid=2 / b_adapt=2 / b_bias=0 / direct=1 / weightb=1 / open_gop=0 / weightp=2 / keyint=230 / keyint_min=23 / scenecut=40 / intra_refresh=0 / rc_lookahead=40 / rc=crf / mbtree=0 / crf=20.5 / qcomp=0.60 / qpmin=0 / qpmax=69 / qpstep=4 / vbv_maxrate=50000 / vbv_bufsize=62500 / crf_max=0.0 / nal_hrd=none / ip_ratio=1.40 / pb_ratio=1.30 / aq=1:1.00 Язык : English Default : Да Forced : НетАудио #1: Идентификатор : 2 Формат : AC-3 Формат/Информация : Audio Coding 3 Расширение режима : CM (complete main) Параметр Endianness формата : Big Идентификатор кодека : A_AC3 Продолжительность : 1 ч. 38 м. Вид битрейта : Постоянный Битрейт : 640 Кбит/сек Каналы : 6 каналов Расположение каналов : Front: L C R, Side: L R, LFE Частота : 48,0 КГц Битовая глубина : 16 бит Метод сжатия : С потерями Размер потока : 451 Мбайт (4%) Заголовок : DUB Язык : Russian Default : Да Forced : НетАудио #2: Идентификатор : 3 Формат : AC-3 Формат/Информация : Audio Coding 3 Расширение режима : CM (complete main) Параметр Endianness формата : Big Идентификатор кодека : A_AC3 Продолжительность : 1 ч. 38 м. Вид битрейта : Постоянный Битрейт : 448 Кбит/сек Каналы : 6 каналов Расположение каналов : Front: L C R, Side: L R, LFE Частота : 48,0 КГц Битовая глубина : 16 бит Метод сжатия : С потерями Размер потока : 316 Мбайт (3%) Заголовок : MVO Язык : Russian Default : Нет Forced : НетАудио #3: Идентификатор : 4 Формат : AC-3 Формат/Информация : Audio Coding 3 Расширение режима : CM (complete main) Параметр Endianness формата : Big Идентификатор кодека : A_AC3 Продолжительность : 1 ч. 38 м. Вид битрейта : Постоянный Битрейт : 640 Кбит/сек Каналы : 6 каналов Расположение каналов : Front: L C R, Side: L R, LFE Частота : 48,0 КГц Битовая глубина : 16 бит Метод сжатия : С потерями Размер потока : 451 Мбайт (4%) Заголовок : Original Язык : English Default : Нет Forced : НетАудио #4: Идентификатор : 5 Формат : AC-3 Формат/Информация : Audio Coding 3 Профиль формата : Dolby Digital Расширение режима : CM (complete main) Параметр Endianness формата : Big Идентификатор кодека : A_AC3 Продолжительность : 1 ч. 38 м. Вид битрейта : Постоянный Битрейт : 192 Кбит/сек Каналы : 2 канала Расположение каналов : Front: L R Частота : 48,0 КГц Битовая глубина : 16 бит Метод сжатия : С потерями Размер потока : 135 Мбайт (1%) Заголовок : Commentary Язык : English Default : Нет Forced : Нет, Скачать фильм «Ни жив, ни мертв» через торрент бесплатно, Скачать фильм Ни жив, ни мертв (2002) через торрент в хорошем качестве Про что фильм «Ни жив, ни мертв (2002)».
Что-бы бесплатно и без регистрации скачать Ни жив, ни мертв (2002) через торрент - воспользутейсь данной инструкцией. Не забываем , Твич был отправлен на территорию Алькатраса, но пытается перевестись на другую зону. В итоге он очутился среди двух банд, которые пытаются поделить вл, Если Вы скачиваете видео-файл (фильм, сериал, мультфильм) - тогда не забывайте о том, что Вы можете посмотреть онлайн Мертв для меня через торрент с помощью плеера., Здесь вы можете скачать через торрент, или посмотреть онлайн фильм Ни жив, ни мертв / Half Past Dead 2002 года, от режиссера Дон Майкл Пола. Все фильмы на нашем сайте абсолютно бесплатные в хорошем , , .
 
Copyright 2019. All rights reserved.
Назад к содержимому | Назад к главному меню